Технический форум
Вернуться   Технический форум > Компьютерный форум > Софт и программы > Аудио-видео


Ответ
 
Опции темы Опции просмотра
Старый 01.04.2016, 23:15   #1 (permalink)
retroberg
Member
 
Регистрация: 09.06.2012
Сообщений: 27
Сказал(а) спасибо: 0
Поблагодарили 0 раз(а) в 0 сообщениях
Репутация: 10
По умолчанию Подтормаживает видео после озвучки

Проблема в следующем: после наложения звука на видео высокого разрешения .mts это видео начинает заметно подтормаживать. Менял и алгоритм озвучки: сначала накладывал через ВидеоМастер в формате MP3, потом перекодировал звук в XMediaRecod в AC3. И при MP3, и при AC3 подтормаживает. Потом просто присоединял трек через Avidemux - в формате AC3, та же петрушка... До озвучки видео плавное, после озвучки - заметное глазу "рывковое", подтормаживающее воспроизведение... В чем может быть дело, что смотреть?
retroberg вне форума   Ответить с цитированием

Старый 01.04.2016, 23:15
Helpmaster
Member
 
Аватар для Helpmaster
 
Регистрация: 08.03.2016
Сообщений: 0

Перейдите по этим ссылкам, скорее всего там для вас много полезной информации

IE10. На сайте,вместо видео такой вид. В Chrome видео работает. И в IE10 после тоже.
Подтормаживает система
Подтормаживает видео в браузере
Подтормаживает видео и интернет
Комп подтормаживает

Старый 01.04.2016, 23:46   #2 (permalink)
IronArgument
Специалист
 
Аватар для IronArgument
 
Регистрация: 08.04.2015
Сообщений: 8,305
Сказал(а) спасибо: 82
Поблагодарили 40 раз(а) в 17 сообщениях
Репутация: 50413
По умолчанию

Какой программой пользуетесь для получения сведений о характеристиках видеофайлов? Сделайте в ней отчёты о характеристиках исходного и полученного видеофайлов.
__________________
Errare humanum est, stultum est in errore perseverare.
IronArgument на форуме   Ответить с цитированием
Старый 02.04.2016, 00:36   #3 (permalink)
retroberg
Member
 
Регистрация: 09.06.2012
Сообщений: 27
Сказал(а) спасибо: 0
Поблагодарили 0 раз(а) в 0 сообщениях
Репутация: 10
По умолчанию

Тот же XMediaRecode отображает информацию, спасибо, посмотрел. Отличаются параметры Stream ID - 4113 до озвучки и 256 после. Four CC до озвучки указан HDMV, после - стрелочка просто, влево. Вопрос:1. Что за показатель Stream ID и почему он мог поменяться при наложении звука? 2. Как действовать, чтобы вернуться к исходным параметрам? (Аудио озвученного файла, кстати, тоже имеет Stream ID в разы меньший, чем тот же показатель у оригинальных файлов с камеры,и определяется как Unknown AC3, и Four CC стоит неопределенный какой-то, буква f, что ли, прописная...)
retroberg вне форума   Ответить с цитированием
Старый 02.04.2016, 01:08   #4 (permalink)
IronArgument
Специалист
 
Аватар для IronArgument
 
Регистрация: 08.04.2015
Сообщений: 8,305
Сказал(а) спасибо: 82
Поблагодарили 40 раз(а) в 17 сообщениях
Репутация: 50413
По умолчанию

В программе MediaInfo откройте видеофайл, затем "Файл → Экспорт Alt+E", выберите формат HTML, сохраните под любым именем, и сюда.
__________________
Errare humanum est, stultum est in errore perseverare.
IronArgument на форуме   Ответить с цитированием
Старый 02.04.2016, 01:26   #5 (permalink)
retroberg
Member
 
Регистрация: 09.06.2012
Сообщений: 27
Сказал(а) спасибо: 0
Поблагодарили 0 раз(а) в 0 сообщениях
Репутация: 10
По умолчанию

Сделал. Неожиданно в тупик поставило - и сюда. Как? Через вложения - пишет, некорректный файл. Открыть в браузере и ссылку скопировать? Прошу прощения за дремучее мракобесие.
retroberg вне форума   Ответить с цитированием
Ads

Яндекс

Member
 
Регистрация: 31.10.2006
Сообщений: 40200
Записей в дневнике: 0
Сказал(а) спасибо: 0
Поблагодарили 0 раз(а) в 0 сообщениях
Репутация: 55070
Старый 02.04.2016, 01:38   #6 (permalink)
mike_
VIP user
 
Аватар для mike_
 
Регистрация: 15.01.2014
Сообщений: 1,832
Сказал(а) спасибо: 237
Поблагодарили 15 раз(а) в 11 сообщениях
Репутация: 25642
По умолчанию

Цитата:
Сообщение от retroberg Посмотреть сообщение
Открыть в браузере и ссылку скопировать? П
Нееет
Как вариант заархивировать и архив сюда. Или открыть в браузере, и текст сюда.(не уверен что там текст будет, этой программой не пользовался.)
mike_ вне форума   Ответить с цитированием
Старый 02.04.2016, 01:45   #7 (permalink)
retroberg
Member
 
Регистрация: 09.06.2012
Сообщений: 27
Сказал(а) спасибо: 0
Поблагодарили 0 раз(а) в 0 сообщениях
Репутация: 10
По умолчанию

Общее
Идентификатор : 1 (0x1)
Полное имя : C:\Users\Admin\Desktop\video\Новая папка\zzzzzzzzzzv.mts
Формат : MPEG-TS
Размер файла : 452 Мбайт
Продолжительность : 3 м. 44 с.
Режим общего битрейта : Переменный
Общий поток : 16,8 Мбит/сек

Видео
Идентификатор : 256 (0x100)
Идентификатор меню : 1 (0x1)
Формат : AVC
Формат/Информация : Advanced Video Codec
Профиль формата : High@L4
Параметр CABAC формата : Да
Параметр ReFrames формата : 2 кадра
Параметр GOP формата : M=3, N=12
Идентификатор кодека : 27
Продолжительность : 3 м. 44 с.
Вид битрейта : Переменный
Битрейт : 16,0 Мбит/сек
Ширина : 1920 пикселей
Высота : 1080 пикселей
Соотношение сторон : 16:9
Частота кадров : 25,000 кадров/сек
Цветовое пространство : YUV
Субдискретизация насыщенности : 4:2:0
Битовая глубина : 8 бит
Тип развёртки : Чересстрочная
Метод сохранения типа развёртки : Раздельные поля
Порядок развёртки : Верхнее поле первое
Бит/(Пиксели*Кадры) : 0.309
Размер потока : 426 Мбайт (94%)

Аудио
Идентификатор : 257 (0x101)
Идентификатор меню : 1 (0x1)
Формат : AC-3
Формат/Информация : Audio Coding 3
Расширение режима : CM (complete main)
Параметр Endianness формата : Big
Идентификатор кодека : 129
Продолжительность : 3 м. 44 с.
Вид битрейта : Постоянный
Битрейт : 128 Кбит/сек
Каналы : 2 канала
Расположение каналов : Front: L R
Частота : 48,0 КГц
Частота кадров : 31,250 кадров/сек (1536 spf)
Метод сжатия : С потерями
Задержка видео : -120 мс.
Размер потока : 3,43 Мбайт (1%)

Меню
Идентификатор : 4096 (0x1000)
Идентификатор меню : 1 (0x1)
Продолжительность : 3 м. 44 с.
Список : 256 (0x100) (AVC) / 257 (0x101) (AC-3)
Название сервиса : Service01
Поставщик сервиса : FFmpeg
Тип сервиса : digital television
retroberg вне форума   Ответить с цитированием
Старый 02.04.2016, 14:30   #8 (permalink)
retroberg
Member
 
Регистрация: 09.06.2012
Сообщений: 27
Сказал(а) спасибо: 0
Поблагодарили 0 раз(а) в 0 сообщениях
Репутация: 10
По умолчанию

а вот файл до наложения звука

Общее
Идентификатор : 1 (0x1)
Полное имя : C:\Users\Admin\Desktop\video\Новая папка\01mux.mts
Формат : BDAV
Формат/Информация : Blu-ray Video
Размер файла : 434 Мбайт
Продолжительность : 3 м. 44 с.
Режим общего битрейта : Переменный
Общий поток : 16,2 Мбит/сек
Максимальный общий битрейт : 35,5 Мбит/сек

Видео
Идентификатор : 4113 (0x1011)
Идентификатор меню : 1 (0x1)
Формат : AVC
Формат/Информация : Advanced Video Codec
Профиль формата : High@L4
Параметр CABAC формата : Да
Параметр ReFrames формата : 2 кадра
Параметр GOP формата : M=3, N=12
Идентификатор кодека : 27
Продолжительность : 3 м. 44 с.
Вид битрейта : Переменный
Битрейт : 15,5 Мбит/сек
Максимальный битрейт : 16,0 Мбит/сек
Ширина : 1920 пикселей
Высота : 1080 пикселей
Соотношение сторон : 16:9
Частота кадров : 25,000 кадров/сек
Цветовое пространство : YUV
Субдискретизация насыщенности : 4:2:0
Битовая глубина : 8 бит
Тип развёртки : Чересстрочная
Метод сохранения типа развёртки : Раздельные поля
Порядок развёртки : Верхнее поле первое
Бит/(Пиксели*Кадры) : 0.300
Размер потока : 417 Мбайт (96%)

Последний раз редактировалось retroberg; 02.04.2016 в 14:40
retroberg вне форума   Ответить с цитированием
Старый 02.04.2016, 15:51   #9 (permalink)
Eli
TEHNARI.RU
 
Аватар для Eli
 
Регистрация: 31.03.2008
Адрес: Израиль
Сообщений: 18,406
Записей в дневнике: 7
Сказал(а) спасибо: 10
Поблагодарили 1 раз в 1 сообщении
Репутация: 14031
По умолчанию

а сколько у вас оперативной памяти вообще ? + вы пробовали обновить \ установить кодеки?

да и вообще - напишите какие характеристики компа
Eli вне форума   Ответить с цитированием
Старый 02.04.2016, 16:47   #10 (permalink)
retroberg
Member
 
Регистрация: 09.06.2012
Сообщений: 27
Сказал(а) спасибо: 0
Поблагодарили 0 раз(а) в 0 сообщениях
Репутация: 10
По умолчанию

C компом порядок - Intel Core 2 Duo E8400, 6ГБ ОЗУ, NVIDIA GeForce GTX 550Ti. Кодеки обновлены, да и подтормаживание заметно и на FULL HD телевизоре, при проигрывании файла с флешки, и именно в озвученном фрагменте. Аналогичное видео с камеры идет гладко. И фрагмент до озвучки гладко.
retroberg вне форума   Ответить с цитированием
Ads

Яндекс

Member
 
Регистрация: 31.10.2006
Сообщений: 40200
Записей в дневнике: 0
Сказал(а) спасибо: 0
Поблагодарили 0 раз(а) в 0 сообщениях
Репутация: 55070
Ответ

Опции темы
Опции просмотра

Ваши права в разделе
Вы не можете создавать новые темы
Вы не можете отвечать в темах
Вы не можете прикреплять вложения
Вы не можете редактировать свои сообщения

BB коды Вкл.
Смайлы Вкл.
[IMG] код Выкл.
HTML код Выкл.
Trackbacks are Вкл.
Pingbacks are Вкл.
Refbacks are Выкл.




Часовой пояс GMT +4, время: 10:36.

Powered by vBulletin® Version 6.2.5.
Copyright ©2000 - 2014, Jelsoft Enterprises Ltd.